Top Ad unit 728 × 90

recent

[MV] Nogizaka46 (Nishino Nanase Solo) - Gomen ne Zutto... [SSTV Vers.]

Format : MPEG-TS
File size : 801 MiB
Duration : 6mn 10s
Overall bit rate : 18.1 Mbps

Video
ID : 17 (0x11)
Menu ID : 1 (0x1)
Format : MPEG Video
Format version : Version 2
Format profile : Main@High
Format settings, BVOP : Yes
Format settings, Matrix : Default
Format settings, GOP : M=3, N=12
Codec ID : 2
Duration : 6mn 10s
Bit rate : 17.0 Mbps
Maximum bit rate : 17.4 Mbps
Width : 1 920 pixels
Height : 1 080 pixels
Display aspect ratio : 16:9
Frame rate : 29.970 fps
Color space : YUV
Chroma subsampling : 4:2:0
Bit depth : 8 bits
Scan type : Interlaced
Scan order : Top Field First
Compression mode : Lossy
Bits/(Pixel*Frame) : 0.274
Stream size : 751 MiB (94%)

Audio
ID : 20 (0x14)
Menu ID : 1 (0x1)
Format : AAC
Format/Info : Advanced Audio Codec
Format version : Version 2
Format profile : LC
Muxing mode : ADTS
Codec ID : 15
Duration : 6mn 10s
Bit rate mode : Constant / Variable / Variable
Bit rate : 222 Kbps
Minimum bit rate : 199 Kbps / 199 Kbps
Maximum bit rate : 414 Kbps / 414 Kbps
Channel(s) : 2 channels
Channel positions : Front: L R
Sampling rate : 48.0 KHz
Compression mode : Lossy
Delay relative to video : -221ms
Stream size : 9.82 MiB (1%)



Link Download:

1080i [Format .ts]
720p [Format .mkv]
[MV] Nogizaka46 (Nishino Nanase Solo) - Gomen ne Zutto... [SSTV Vers.] Reviewed by Candra Greeyz on 4:09:00 pm Rating: 5

No comments:

All Rights Reserved by GGSubs48 © 2014 - 2015

Contact Form

Name

Email *

Message *

Powered by Blogger.